Autor Tema: Ip Man 2 (Wilson Yip, 2010) [HK]  (Leído 1581 veces)

Desconectado Big Hugo

  • Nyumonsha
  • Mensajes: 28
  • Ryos: 0
Ip Man 2 (Wilson Yip, 2010) [HK]
« en: 29 Junio, 2010, 15:09:09 »
Título:Ip Man 2
Título V.O:Yip Man 2
Director:Wilson Yip
Año/País:2010 / Hong Kong
Duración:108 minutos
Género:Artes marciales
Reparto:Donnie Yen, Lynn Hung, Simon Yam, Sammo Hung Kam-Bo...
Enlaces:Subs
Ficha de:Big Hugo




Desconectado Big Hugo

  • Nyumonsha
  • Mensajes: 28
  • Ryos: 0
Re:Ip Man 2 (Wilson Yip, 2010) [HK]
« Respuesta #1 en: 29 Junio, 2010, 15:14:33 »
Es mi primer post de una peli, asi que si encuentran algun error, sepan disculparme por el mismo.

Salu2...!!!  ;)

Desconectado pazguaton

  • Hanshi
  • Judan
  • *****
  • Mensajes: 16.222
  • Ryos: 13117
  • We, we, we... Azuki panda chaaaaan....
Re:Ip Man 2 (Wilson Yip, 2010) [HK]
« Respuesta #2 en: 29 Junio, 2010, 15:18:02 »
Está perfecto, te he añadido el enlace a los subs en inglés.
Muchas gracias :punk:

Desconectado anikiba245

  • Renshi
  • Judan
  • *****
  • Mensajes: 11.520
  • Ryos: 12889
Re:Ip Man 2 (Wilson Yip, 2010) [HK]
« Respuesta #3 en: 29 Junio, 2010, 18:59:00 »
Ya llegó, gracias Big Hugo   :compadre:

Desconectado Caulfield

  • Nikyu
  • ***
  • Mensajes: 410
  • Ryos: 44
Re:Ip Man 2 (Wilson Yip, 2010) [HK]
« Respuesta #4 en: 02 Julio, 2010, 13:21:17 »

Si nadie más está en ello, me pongo con la traducción  :).

Desconectado anikiba245

  • Renshi
  • Judan
  • *****
  • Mensajes: 11.520
  • Ryos: 12889
Re:Ip Man 2 (Wilson Yip, 2010) [HK]
« Respuesta #5 en: 02 Julio, 2010, 14:47:57 »

Si nadie más está en ello, me pongo con la traducción  :).

Toda tuya  OK

Desconectado Caulfield

  • Nikyu
  • ***
  • Mensajes: 410
  • Ryos: 44
Re:Ip Man 2 (Wilson Yip, 2010) [HK]
« Respuesta #6 en: 04 Julio, 2010, 13:58:14 »

Subtítulos enviados  :punk:.

Desconectado anikiba245

  • Renshi
  • Judan
  • *****
  • Mensajes: 11.520
  • Ryos: 12889
Re:Ip Man 2 (Wilson Yip, 2010) [HK]
« Respuesta #7 en: 05 Julio, 2010, 02:08:41 »
Enlazada la traducción. :compadre:

Desconectado Big Hugo

  • Nyumonsha
  • Mensajes: 28
  • Ryos: 0
Re:Ip Man 2 (Wilson Yip, 2010) [HK]
« Respuesta #8 en: 05 Julio, 2010, 13:21:23 »
 :punk: Siiii jajaja
Buenisima la noticia.
Hacia alla vamos, ;)

Desconectado Kitano Girl

  • Godan
  • *****
  • Mensajes: 3.311
  • Ryos: 0
  • Usteak erdia ustel
    • about.me
Re:Ip Man 2 (Wilson Yip, 2010) [HK]
« Respuesta #9 en: 05 Julio, 2010, 21:13:09 »
hay una versión bluray vía torrent, me la estoy bajando, cuando la reduzca de tamaño, la subo

Desconectado elguaxo

  • Kyoshi
  • Rokudan
  • *****
  • Mensajes: 4.606
  • Ryos: 28
Re:Ip Man 2 (Wilson Yip, 2010) [HK]
« Respuesta #10 en: 06 Julio, 2010, 17:35:15 »
Ip.Man.2.2010.720p.BluRay.x264-LCHD


http://www.imdb.com/title/tt1386932/

Sinopsis: In this highly anticipated, hard hitting followup to to the 2008 original, IP MAN (Donnie Yen) moves to Hong Kong, where he discovers that operating a martial arts school is anything but easy. Nothing is respectable or respected, and his efforts to teach his unique Wing Chun style is met with intense resistence from Master Hung (Sammo Hung). The one bright spot is his talented pupil, Leung (Chen Dao Ming), and his incredibly understanding and patient wife. However, when English boxing champ (Darren Shahlavi) insults the local martial artists including Ip Man, tempers errupt to a boiling point...

Citar
Ip Man 2 entertains during its first half thanks to Donnie Yen's charisma and Sammo Hung's action. It also entertains during its second half - but for completely the wrong reasons. A money play from Wilson Yip and Raymond Wong that sacrifices effort and authenticity for crass commercialism, ugly racism and some incredibly loud acting. Hey, the action is awesome. For some, that may be all they need. -- Kozo

Código: [Seleccionar]
General
Complete name                    : Ip.Man.2.2010.720p.BluRay.x264-LCHD.mkv
Format                           : Matroska
File size                        : 4.37 GiB
Duration                         : 1h 48mn
Overall bit rate                 : 5 785 Kbps
Encoded date                     : UTC 2010-06-26 08:05:31
Writing application              : mkvmerge v3.3.0 ('Language') built on Mar 24 2010 14:59:24
Writing library                  : libebml v0.8.0 + libmatroska v0.9.0

Video
ID                               : 1
Format                           : AVC
Format/Info                      : Advanced Video Codec
Format profile                   : High@L4.1
Format settings, CABAC           : Yes
Format settings, ReFrames        : 5 frames
Muxing mode                      : Container profile=Unknown@4.1
Codec ID                         : V_MPEG4/ISO/AVC
Duration                         : 1h 48mn
Bit rate                         : 4 275 Kbps
Width                            : 1 280 pixels
Height                           : 544 pixels
Display aspect ratio             : 2.35:1
Frame rate                       : 24.000 fps
Color space                      : YUV
Chroma subsampling               : 4:2:0
Bit depth                        : 8 bits
Scan type                        : Progressive
Bits/(Pixel*Frame)               : 0.256
Stream size                      : 3.14 GiB (72%)
Writing library                  : x264 core 98 r1649 c54c47d
Encoding settings                : cabac=1 / ref=5 / deblock=1:-1:-1 / analyse=0x3:0x113
                                  / me=umh / subme=7 / psy=1 / psy_rd=1.00:0.00 / mixed_ref=1
                                  / me_range=16 / chroma_me=1 / trellis=1 / 8x8dct=1 / cqm=0
                                  / deadzone=21,11 / fast_pskip=1 / chroma_qp_offset=-2
                                  / threads=6 / sliced_threads=0 / nr=0 / decimate=1
                                  / interlaced=0 / constrained_intra=0 / bframes=3
                                  / b_pyramid=2 / b_adapt=2 / b_bias=0 / direct=3 / weightb=1
                                  / weightp=2 / keyint=250 / keyint_min=25 / scenecut=40
                                  / intra_refresh=0 / rc_lookahead=40 / rc=2pass / mbtree=1
                                  / bitrate=4275 / ratetol=1.0 / qcomp=0.60 / qpmin=10
                                  / qpmax=51 / qpstep=4 / cplxblur=20.0 / qblur=0.5
                                  / vbv_maxrate=50000 / vbv_bufsize=50000 / ip_ratio=1.40
                                  / aq=1:1.00 / nal_hrd=none
Language                         : Cantonese

Audio
ID                               : 2
Format                           : DTS
Format/Info                      : Digital Theater Systems
Codec ID                         : A_DTS
Duration                         : 1h 48mn
Bit rate mode                    : Constant
Bit rate                         : 1 510 Kbps
Channel(s)                       : 6 channels
Channel positions                : Front: L C R, Side: L R, LFE
Sampling rate                    : 48.0 KHz
Bit depth                        : 16 bits
Stream size                      : 1.14 GiB (26%)
Language                         : Cantonese

Text
ID                               : 3
Format                           : UTF-8
Codec ID                         : S_TEXT/UTF8
Codec ID/Info                    : UTF-8 Plain Text
Language                         : English

Screenshots:




emule:
 [4.37 Gb]

NZB (a.b.boneless, a.b.test & a.b.x / 2010-06-26):
buscar por Ip.Man.2.2010.720p.BluRay.x264-LCHD

Desconectado Kitano Girl

  • Godan
  • *****
  • Mensajes: 3.311
  • Ryos: 0
  • Usteak erdia ustel
    • about.me
Re:Ip Man 2 (Wilson Yip, 2010) [HK]
« Respuesta #11 en: 06 Julio, 2010, 20:20:59 »
ah mira, este esta mejor, gracias guxo, el que encontré yo pesaba 6'67Gb

Desconectado elguaxo

  • Kyoshi
  • Rokudan
  • *****
  • Mensajes: 4.606
  • Ryos: 28
Re:Ip Man 2 (Wilson Yip, 2010) [HK]
« Respuesta #12 en: 06 Julio, 2010, 20:29:26 »
ah mira, este esta mejor, gracias guxo, el que encontré yo pesaba 6'67Gb

Hay MUCHAS versiones, pero como el Bluray chino salió hace rato, la mayoría viene con el audio en Mandarín. Esta es la única versión que encontré con solo una cadena de audio y en Cantonés.

Desconectado anikiba245

  • Renshi
  • Judan
  • *****
  • Mensajes: 11.520
  • Ryos: 12889
Re:Ip Man 2 (Wilson Yip, 2010) [HK]
« Respuesta #13 en: 06 Julio, 2010, 20:31:56 »
Yo la vi hace unos días, la película está bien, hasta cierto momento en el final que espoiler- donnie yen larga un discurso innecesario, similar o idéntico en realidad al que Stallone dice en Rocky 4, hace ya 20 años, entonces era ridículo, es decir poco creíble, ahora también y que en cierta forma, creo yo, traiciona al espíritu de la película -
Por lo demás, es una película simple que dura lo justo y necesario, la verdad es que todo es una excusa para verlo repartir a donnie yen y a sammo hung. Y en ese sentido cumple, no se va por las ramas, no se deja subtramas por la mitad, las pocas que abre las cierra. Recuerda un poco a películas de otros tiempos, eso tiene algo bueno y algo malo. No sé si llega a resolver ese problema, retomar la tradición para avanzar o quedar congelados en el tiempo.
Bueno, para ver sin más.


Desconectado Silien

  • Hanshi
  • Judan
  • *****
  • Mensajes: 18.445
  • Ryos: 20
    • détour
Re:Ip Man 2 (Wilson Yip, 2010) [HK]
« Respuesta #14 en: 06 Julio, 2010, 21:06:49 »
Me apunto a LCHD (¿son una variante de CHD? jajaja ). Era lo que estaba esperando :P .